#fbcb24
#f6db73
#bc0404
#628aac
#b48ec9
#950303

Index of flac pink floyd

. This rivals the Boston Garden show for quality Pink Floyd - The Syd Barrett Tapes. 3 commenti: Brian 26 aprile 2016 00:13. September 2016 EAC extraction logfile from 16. Manchester College of Commerce June 1969 + Studio Album (77:27) 01. 0 Stereo and 5. The Later Years: 1987-2019 Pink Floyd 2019 From £10. 1967 (replay on may 7th, 2011) SOURCE: sonic studio dsm 6 (w/ pre-amp & bass roll off) > tascam tascam dr-07 (44khz/24bit) TRANSFER: adobe audition 3. Pink Floyd - Upelkuchen flac download. 54 Gb. 16-bit FLAC. not the usual Q8 or SQ versions with all their limitations. flac: 22. Pink Floyd / London 1966/1967 180 Gram Vinyl Record Limited Edition on Colored Vinyl AKSP 928 $29. No room for errors etc. FLAC Format: 16 Bits / 44. Album: A Momentary Lapse Of Reason (The High Resolution Remasters) Published: 2020. 6 MiB: 19/07/20 23:24:34: Pink Floyd Etichette: FLAC, Pink Floyd. If you are looking for Index Of Flac Pink Floyd, simply look out our information below : PERFORMER "Pink Floyd" INDEX 01 00:00:00 TRACK 02 AUDIO TITLE "Remember A Day" PERFORMER "Pink Floyd" INDEX 00 05:33:32 FILE "02 Remember A Day. cue) - 1,6 Gb | MP3 CBR 320 kbps - 713 Mb | Scans - 12 Mb | 05:11:24 Psychedelic Rock, Progressive Rock | Label: The Archives Records & Tapes Disc 1: Rarities & Alternate Versions - All Tracks Newly Remastered (77:26) 01. Related at The Pink Floyd - Arnold Layne flac albums: Pink Floyd - The Early Singles flac download . Rock-MIRCrew - proveniente dagli archivi di Torrent Lo staff di Cultura digitale al fine di promuovere la cultura condivide i contenuti presenti sul sito il corsaro nero. Artist: Pink Floyd | Album: The Division Bell | Style: Progressive Rock | Release year: 2014 [1994 original] | Format: Flac 2. FLAC CD / Rock / Collection Best Hits. cue) Bitrate: lossless Covers: in archive Amount of tracks: 5 Size RAR: ~ 340 mb Pink Floyd - The Dark Side Of The Moon [MFSL] (1973) [Vinyl Rip 24bit/192kHz] Vinyl Rip maestro 0 6 855 05. 49 Results Pink Floyd - The Dark Side of the Moon - Speak to Me FLAC) zip ocp oracle database 11g administrator certified professional study guide tqw. Remastered: Country: UK. Dear visitor, you . 4. Huge collection of FLAC and audio. A confined but troubled rock star descends into madness in the midst of his physical and social isolation from everyone. Of these concept albums, Dark Side of the Moon resonated strongest, earning new audiences year after year, decade after decade Pink Floyd – Ummagumma (2019) FLAC. Soubor Pink Floyd - The Dark Side of the Moon (1973) [24 bit FLAC] vinyl. Pink Floyd – Works – 1983 FLAC with Cue [Bubanee] What makes this Official American Complilation unique is the track ‘ Embryo ‘ which wasn’t released until this offering, Works is yet another Pink Floyd greatest hits type album which is also a Rare comodity as re-issues don’t surface to often. 12. 1 kHz (Tracks) Performer: Pink Floyd Album: Ummagumma: The High Resolution Remaster Published: 1969 / 2019 Genre: Prog Rock, Psychedelic Rock File Size: 1. Pink Floyd - The Toronto Rehearsals (1987-08-07) FLAC. Pink Floyd Pictures, Photographs, Image Galleries A photograph is an opportunity to escape for a moment and immerse yourself in another time and place. 5 Technics SL-1200MK2 Turntable with KAB Fluid Damping and KAB record grip Ortofon 2M Black cartridge Pro-Ject Tube Box SE II Preamp Pink Floyd's ground-breaking album The Dark Side of the Moon was the result of a long creative process that began around 1968. 30. https://en Pink Floyd – Delicate Sound of Thunder (2019 Remix) (Live) (2020) Hi-Res By flacmusic 2020 , Flac , Hi-Res & Vinyl , Rock 0 Comments Genre : Psychedelic Rock, Progressive Rock Release Date : 2020 Format : Flac (tracks) / Flac (tracks) Quality : 16bit – 44. PINK FLOYD The Montreux 40th Anniversary Series Too Late For Mind Expanding (HRV CDR 036) Montreux Casino, 21Nov70 FLAC Maste Pink Floyd – Works – 1983 FLAC with Cue [Bubanee] What makes this Official American Complilation unique is the track ‘ Embryo ‘ which wasn’t released until this offering, Works is yet another Pink Floyd greatest hits type album which is also a Rare comodity as re-issues don’t surface to often. Vol. FORMAT: Lossless (Flac) SIZE: 365 mb (3% Recovery) Soundboard recording at Pearson Airport, Toronto, 07 August 1987. This box set includes everything that any pink floyd fan will ever dream, from demos to Pink Floyd (784) Pink Floyd 1967 (12) Pink Floyd 1968 (18) Pink Floyd 1969 (31) Pink Floyd 1970 (102) Pink Floyd 1971 (96) Pink Floyd 1972 (120) Pink Floyd 1973 (44) Pink Floyd 1974 (32) Pink Floyd 1975 (50) Pink Floyd 1977 (104) Pink Floyd 1980 (17) Pink Floyd 1981 (14) Pink Floyd 1987 (18) Pink Floyd 1988 (15) Pink Floyd 1989 (6) Pink Floyd Pink Floyd - The Later Years: 1987-2019 | MP3 & FLAC; Pink Floyd - The Wall (Remastered) + [FLAC] David Bowie - Discographie Studio [FLAC] Michael Jackson - Discographie + [FLAC] Roger Waters – Roger Waters The Wall [iTunes Plus AAC M4A] (2015) Jeff Beck - Albums Collection: 9 Albums (10CD) (2013 - 2014) Pink Floyd - Greatest Hits Pink Floyd grounded that limitless sound with exacting explorations of mundane matters of ego, mind, memory, and heart, touching upon madness, alienation, narcissism, and society on their concept albums of the '70s. com PINK FLOYD Full Discography FLAC Lossless ZoneTeam 1972 - Obscured By Clouds 1973 - Dark Side Of The Moon 1974 - Masters of rock 1975 - Shine On. flac" FLAC Index of /Music/Pink Floyd - The Dark Side of the Moon/ Brain Damage. Unreleased studio sessions spanning Pink Floyd's entire. by Claude Nine. 1kHz / 24bit – 96. This one, however, has to be the best audience recording of an old Floyd show ever. 0 > > flac level 8 LOCATION: next to the soundboard, approx. 1 comentario: Jayjoe 21 de febrero de 2021 Детали релиза Pink Floyd - The Dark Side Of The Moon (1973/2003) [FLAC (tracks)] Скачать 16 часов 8 минут 39 секунд Freeleech:) Главная This two CD set features a complete show from the 1977 Animals tour (aka 'In The Flesh' tour). 17 June 1977. Pink Floyd - the early years - 1965/1972. Catalog #: PFR36 Style: Psychedelic Rock, Prog Rock Year: 2020 Format: FLAC (tracks + . Year: 1970. 16 Performer: Pink Floyd Performer: Pink Floyd Album: Wish You Were Here Label: Ⓟ+Ⓒ 1975, 1992 Pink Floyd Music|Toshiba-EMI Ltd. Band: Pink Floyd. flac" FLAC Pink Floyd – The Wall 2CD 2011 Remaster Flac-Cue [Bubanee] A lot of bands strive for that one signature album that stands out from the rest of their releases, Pink Floyd did it twice firstly with the Dark Side Of The Moon and then several years later with this Classic from 1979 The Wall. Fixed some of the songtitles that were wrong (i. flac: 10. com Password: without a password The Pink Floyd Exhibition Their Mortal Remains. 0kHz Search: Index Of Flac Pink Floyd. cue) Quality: lossless Covers: Complete set (600 dpi) Amount of tracks: 11 + 12 (2 CD) Size RAR: ~ 1,03 GB. Buďte první a pomozte tak ostatním uživatelům při výběru souboru ke stažení. Mostly Alt Japanese, Israeli, American. 6 meters off the speakers, center TOTAL: 43:02 01 02 mathilda mother 03 pow r toc h Pink Floyd - The Dark Side of the Moon - Time (FLAC) MP3 Download . 05 Forest National Brussels, Belgium. Pink Floyd 1988-04-15 Los Angeles, CA FLAC/AUD (Michael Cariola Master) (16Bit/44Khz) mediaaddict; 4 d ago; 5 509 10 h ago. Freedom Hall, Kentucky Fair and Exposition Center, Louisville, KY, USA. Original bootleg discs -> EZ CD Audio Converter -> FLAC level 5 Ripped and shared by Gullveig. 1 kHz (Tracks) Performer: Pink Floyd. FLAC. Ecco a voi il torrent Pink Floyd The Dark Side of the Moon (1973) [Rimasterizzato 2003] [FLAC] Prog. - The Many Faces of Pink Floyd: A Journey Through the Inner World of Pink Floyd (2013) VA - The Many Faces of Pink Floyd: A Journey Through the Inner World of Pink Floyd (2013) Pink Floyd - The Dark Side Of The Moon [3CDs, Immersion Edition] (2011) VA - Rock Classics - Best Of Classic Rock (2CD, 2013) FLAC; VA - Pink Floyd - Delicate Sound Index of /Music/Pink Floyd - The Dark Side of the Moon/ Brain Damage. september. cue)] Скачать 1 час 43 минуты 44 секунды Freeleech:) Главная Pink Floyd 'Games For May (Remastered Edition)'. 01. Includes 3 new mixes from ‘A Momentary Lapse of Reason’, 3 new mixes from ‘Delicate Sound of Thunder’, 3 tracks from Knebworth 1990, 2 unreleased studio recordings from Pink Floyd - Dark Side Of The Moon Mobile Fidelity MFSL 1-017 Half-Speed Mastered - Pressed in Japan by JVC 24-bit / 96kHz Vinyl Rip by Dr. 17 Gb WebSite: Album Preview Pink Floyd were excited to be able to develop new material on the road but were horrified to learn of a bootleg album that was released containing a complete performance of the piece recorded in February of 1972 at the Rainbow Theatre. 1kHz) xACT used to create FFP. wav" WAVE INDEX Concierto de PINK FLOYD EL SONIDO DELICADO DEL TRUENO Formato WAV y FLAC sin perdida de audio. 06 - Take Up Thy Stethoscope And Walk FILE "E:\Music\Pink Floyd\(1975) Wish You Were Here\Pink Floyd\(1975) Wish You Were Here\01 - Shine On You Crazy Diamond (Part One). 16 Performer: Pink Floyd Search: Index Of Flac Pink Floyd. 49. Track listing: CD 1 - Remastered Version. 7 ABBA There were two different Tower labels used for Pink Floyd albums- the first one was a solid reddish-brown color. Pink Floyd Pink Floyd ‘s 1994 multi-million selling album „The Division Bell“ that includes the Grammy Award winning track „Marooned“ is now available in HighResAudio at 96 kHz - which is a Floyd collector's dream! Tracks 1-5 are background tracks for "La Carrera Panamericana with Music By Pink Floyd", a 65 minute movie released in 1992, with David Gilmour and Nick Mason driving cross-country in race cars. causes the CUE sheet to be useless without manually updating it. flac" FLAC REM FILE-DECODED-SIZE 04:23:51 TRACK 01 AUDIO TITLE "Signs of Life" PERFORMER "Pink Floyd" SONGWRITER “David Gilmour, Bob Ezrin” INDEX 01 00:00:00 FILE "Pink Floyd - 1987 - A Momentary Lapse of Reason - 02 - Learning to Fly. 90 Gb. Astronomy Domine [Live] (8:29) Pink Floyd - 1977-06-25 - Cleveland,OH FLAC, Have You Heard The News Pink Floyd - "Have You Heard The News" 25th June 1977 Municipal Stadium Cleveland,Ohio Pink Floyd Faster Jersey 1975 Roosevelt Stadium, Jersey City, NJ Date: June 15, 1975 Lineage: AUD > CDR(x) > EAC > WAV > FLAC (8 Pink Floyd - The Endless River [FLAC][MEDIAFIRE] Download! a la/s 15:49. Copies of The Piper at the Gates of Dawn and A Saucerful of The name of the first album of Pink Floyd Index Of Mp3 Elton John. 03 Have A Cigar. Rock. flac" FLAC REM FILE-DECODED-SIZE 01:27:14 TRACK 05 AUDIO TITLE "Bring the Boys Back Home" PERFORMER "Pink Floyd" SONGWRITER “Roger Waters” ISRC GBN9Y1100112 INDEX 01 00:00:00 FILE "Pink Floyd - 1979 - The Wall - 206 - Comfortably Numb. abc6804ccd alawar games keygen generator for cs6 Guide Des Metiers De L Electrotechnique V219 dragon ball z tamil dubbed frieza vs goku full fight GOMK-46-01. mp3: 2006-09-03 17:37 : 6. Pink Floyd - Ummagumma: The High Resolution Remasters (2019) FLAC. Thanks. Toc H. Mexico 70 should be Mexico '78; Carrera Slow Blues should be Pan Am Shuffle). Pink Floyd - Soundtrack From The Film More 1969 [EAC - FLAC] (oan) Pink Floyd - The Dark Side Of The Moon 1973 [EAC - FLAC] (oan) Pink Floyd - The Division Bell 1994 [EAC - FLAC] (oan) Pink Floyd - The Final Cut 1983 [EAC - FLAC] (oan) Pink Floyd - The Piper At The Gates Of Dawn 40th [Disc 1] 2007 [EAC - FLAC] (oan) Pink Floyd - The Piper At Pink Floyd - The Complete Rainbow Tapes (1972) Description: The Complete Rainbow Tapes (8CD) 1 & 2 → Day One - 17 February 1972 3 & 4 → Day Two - 18 February 1972 5 & 6 → Day Three - 19 February 1972 7 & 8 → Day Four - 20 February 1972 Format → flac "Pink Floyd by the beginning of 1972 were growing tired of their stage show. rar ješte nikdo nehodnotil. Pink Floyd – The Division Bell (1994/2014) [ FLAC 24/96] Pink Floyd – A Foot In The Door: The Best Of Pink Floyd (2016) [ FLAC ] Pink Floyd – Wish You Were Here (1975) [Reissue 2011] { SACD ISO + FLAC 24/88,2} Pink Floyd – The Dark Side Of The Moon (1973) [Reissue 2003] { SACD ISO + FLAC 24/88,2} Pink Floyd – The Dark Side Of The Moon All music Pink Floyd. org. Pink Floyd Title - "Echoes From The Past (Platinum Edition)" Label - Digital Reproductions DR 42675-4 There are many Pink Floyd RoIOs out there. Articlo al solo scopo illustrativo . Encoded: 320 Kbps MP3. GENRE: Art Rock, Prog Rock, Psychedelic Rock. PINK FLOYD - UMMAGUMMA (THE HIGH RESOLUTION REMASTERS) (2019) Tracklist : CD1 – Side One: Original Album Part One Live Album Recorded at Mothers Birmingham &. 0 (converted with foobar2000 to tracks) 24bit/88,2 kHz | 44:13 minutes | Scans included | 966 MB. Catalog #: KSLCD 42078-02 Style: Psychedelic Rock Year: 2015 Format: FLAC (image + . Pink Floyd - The Dark Side of the Moon - Time (FLAC) MP3 Download . 6 MiB: 19/07/20 23:24:34: Pink Floyd Pink Floyd – The Division Bell. Soundboard Recordings. Most of them are audience recordings and pretty diffcult to listen to. 99. K. I would like to know about this before i start ripping. July 2018, 11:49 Pink Floyd / Greatest Hits / Big Artist Flash Used drive : SONY BD RW BDX-S600U Adapter: 1 ID: 2 Pink Floyd didn't exactly have a ton of natural overlap with the concurrent glam rock explosion as they finished their own ascent to U. INDEX 01 00:00:00 FILE "Pink Floyd - 1979 - The Wall - 205 - Bring the Boys Back Home. Label Pink Floyd grounded that limitless sound with exacting explorations of mundane matters of ego, mind, memory, and heart, touching upon madness, alienation, narcissism, and society on their concept albums of the '70s. 1 multichannel surround. 81 MB) Pink Floyd – The Narrow Way, Part Three – 5:58 (855 kbps , 36 Performer: Pink Floyd Album: Animals Label: KronStudioLab. MP3 – Here! Детали релиза Pink Floyd - Dark Side Of The Moon: High Resolution Remasters (1973/2018) [FLAC (tracks + . Pink Floyd - The Dark Side Of The Moon: The High Resolution Remasters (1973/2018) EAC Rip | FLAC (tracks+log+. (Studio FLAC) 01 Lucy Leave (Demo) 02 I'm A King Bee (Demo) Recorded Summer 1965. Pink Floyd followed the commercial breakthrough of Dark Side of the Moon with Wish You Were Here, a loose concept album about and dedicated to their Pink Floyd Brussels Affair Sigma 114. e. 17 Gb WebSite: Album Preview Pink Floyd. 01 Shine On You Crazy Diamond (Parts I-V) 02 Welcome To The Machine. 4M: 03_On_The_Run_-_Dark_Side_Of_The_Moon_-_Pink [Mp3 320 Kbps] Progressive Rock - Progetto Pink Floyd Si tratta di una discografia contenente TUTTO il materiale audio che esiste riguardo i Pink FloydI Pink Floyd sono stati una rock band britannica formatasi nella seconda metà degli anni sessanta che, nel corso di una lunga e travagliata carriera, è riuscita a riscrivere le tendenze musicali della propria epoca e a diventare uno dei gruppi Performer: Pink Floyd Album: Wish You Were Here Label: Ⓟ+Ⓒ 1975, 1992 Pink Floyd Music|Toshiba-EMI Ltd. Delicate Sound Of Thunder encapsulates a band at their best. Made in UK. 8 include Jokers Wild mini LP from 1965, singles from "David Gilmour" and "About Face" solo albums, and all the Roger Waters rarities (from "The Pros And Cons Of Hitch Hiking" to"Amused To Death"). 2, 1979 (Programme 1) [Band Demo] [2011 Remastered Version]) Pink Floyd - Early years - Volume 1 by Pink Floyd. Pink Floyd - The Dark Side Of The Moon - 1973 - vinyl rip - 16-48 - flac - Pink Floyd Records - PFRLP8, Pink Floyd Records - 88875184251 - 2016 A1 Speak To Me 1:30 A2 Breathe (In The Air) 2:43 PERFORMER "Pink Floyd" FILE "Pink Floyd - 1987 - A Momentary Lapse of Reason - 01 - Signs of Life. Dear visitor . Flac includes Non-Compliant Cues. Publication date 1972 Topics psychedelic rock. Rammstein - Live aus Berlin (1999) FLAC (0 Replies) John Lee Hooker - Don't Turn Me From Your Door: John Lee Hooker Sings His Blues (1972 (0 Replies) VA - 100 Essential Opera Arias, Songs & Overtures (2014) FLAC (0 Replies) Pink Floyd - Meddle (Remastered) (1971/2016) FLAC (0 Replies) Cassandra Wilson - Dance to the Drums Again (1992) FLAC (0 Pink Floyd . wav" WAVE Which when the songs are shared or moved. With Bob Geldof, Christine Hargreaves, James Laurenson, Eleanor David. If you are not found for Index Of Mp3 Elton John, simply cheking out our text below : Pink Floyd - Delicate Sound Of Thunder Artist: Pink Floyd Album: Delicate Sound Of Thunder Label: Pink Floyd Records. Uploaded 12-11 2020, Size 354. The bootleg was issued a mere six weeks after the concert, about a full year prior to an official release. RESTORED RE-EDITED REMIXED. Pink Floyd = ピンク・フロイド - Meddle = おせっかい flac download David Gilmour - Shapes Of Pink flac download Pink Floyd - La Carrera Panamericana flac download Pink Floyd were excited to be able to develop new material on the road but were horrified to learn of a bootleg album that was released containing a complete performance of the piece recorded in February of 1972 at the Rainbow Theatre. 24-bit FLAC. flac to mp3. Lineage: Master transfer to CDR > FLAC > iZotope RX4 & Reaper v4. 9 MiB, ULed by Anonymous, 118, 6. Pink Floyd pictures tell the story of the band from the very early days before they were famous, right up to now, including everything in between. Visit us for More Fresh Torrents. 1 surround sound), as included in The Later Years box set, all stand Pink Floyd - Soundtrack From The Film More 1969 [EAC - FLAC] (oan) Pink Floyd - The Dark Side Of The Moon 1973 [EAC - FLAC] (oan) Pink Floyd - The Division Bell 1994 [EAC - FLAC] (oan) Pink Floyd - The Final Cut 1983 [EAC - FLAC] (oan) Pink Floyd - The Piper At The Gates Of Dawn 40th [Disc 1] 2007 [EAC - FLAC] (oan) Pink Floyd - The Piper At Pink Floyd - 1977-04-26 - Atlanta, GA (AUD/FLAC) "Moonshine On You Crazy Diamond". Pink Floyd – Several Species Of Small Furry Animals Gathered Together In A Cave And Grooving With A Pict – 4:59 (785 kbps , 27. Robert March 2010 Nitty Gritty RCM 1. The Later Years follows on from the retrospective which focuses on the early years (1967-1972) of the British band, released in 2016. COMPARTIR/SHARE. File Size: 1. Mono SBD audio track from Master Betacam tapes except tracks 10-11-12: ono camera audio track from Master Betacam tapes. flac" FLAC V. @ unknown studio, possibly Regent Sound, London. L. Lossless Pink Floyd – The Later Years 1987-2019 (2019) [FLAC] The Best Of Pink PINK FLOYD Full Discography FLAC Lossless ZoneTeam. I was at this show. It was released in the UK on 6 March 2006, Gilmour's 60th birthday, and in the US the following day. Exact Audio Copy V1. 61 > FLAC (16bit/44. I have VOX player on my Mac and someone gave me a lossless version of . Notes. 0 PINK FLOYD. Catalog #: TOCP-65560 (4 988006 782716) Style: Prog Rock, Art Rock, Psychedelic Rock Year: 1975 (Reissue 2000, Remastered) Format: FLAC (image + . Pink Floyd - The Piper At The Gates Of Dawn (The Barrett Era) flac download. Genre: Rock, Prog Rock, Symphonic Rock. career up to Roger Waters leaving the band. Special Limited SACD Edition | Features 2. I have not seen a soundboard till now from 87. Pink Floyd Dark Side Of The Moon Flac Torrent ->->->-> DOWNLOAD. 3 MiB: 19/07/20 23:24:18: 9. Скачать бесплатно Pink Floyd - The Later Years: 1987-2019 5CD Box Set (2019) FLAC в формате через торрент. Money (Early Mix) Pink Floyd 2020 From $1. The second one (from mid-1969 on) had multiple colors and a series of stripes. Audio: FLAC CD / 44. Pink Floyd - The Dark Side Of The Moon [MFSL] (1973) [Vinyl Rip 24bit/192kHz] Vinyl Rip maestro 0 6 855 05. Source: Combination of various sources including studio, live soundboards, live audience, promos, outtakes. Preview Delicate Sound Of Thunder (2019 Remix; Live) Delicate Sound Of Thunder (2019 Remix; Live) Pink Floyd 2019 From £13. Atom Heart Mother: Father’s Shout - Breast Milky - Mother Fore - Funky Dung - Mind Your Throats Please - Remergence. 1 KHz (CD lossless) MP3 Format: 320 kbps. 96 MB) Pink Floyd – The Narrow Way, Part One – 3:29 (851 kbps , 21. Pink Floyd - The Endless River (Deluxe Edition) 8 0 2320. 8 (2000) FLAC. All music Pink Floyd. mkv MissaXClips4Sale Lyra Louvel Desperate Mommy Gets Blackmailed II Mp4 Knight And Day Remake 2 hd telugu download movie PINK FLOYD stockholm gyllene circelen 10. Disc 3: 3-1 Come In Number 51, Your Time Is Up. (limited bandwidth on the Q8, Matrixed surround on the SQ etc) but a genuine transfer from the original What a surprise! After The Later Years: 1987-2019 compilation, here comes the rest of the huge box set dedicated to the band’s David Gilmour-era music, kick started by the departure of Roger Waters. Of these concept albums, Dark Side of the Moon resonated strongest, earning new audiences year after year, decade after decade PINK FLOYD DISCOGRAFIA ESTUDIO - MP3(320 kbps) & FLAC COMPILACIONES - DIRECTOS - RAREZAS BOOTLEGS - TRIBUTOS - INTERACTIVA SERVIDORES DE DESCARGA - DISCOS ESTUDIO 1967 - The Piper At The Gates Of Dawn August 1967 01 - Astronomy Domine 02 - Lucifer Sam 03 - Matilda Mother 04 - Flaming 05 - Pow R. Eclipse. @ Thompson Private Recording Studios, Hempstead. Thx for the soundbourd. 1972. lol Pink Floyd: The Wall: Directed by Alan Parker. It's notable for it's very good performance and the rare encore of 'Careful With That Axe, Eugene' --a song that hadn't been played for a few years at that time, and has never ever been played since then. or FLAC 2. If you are looking for Index Of Flac Pink Floyd, simply look out our information below : Index of /media/Pink Floyd/ The Early Years, [FLAC] He's Dead Jim! Close. Pink Floyd – Live At Knebworth 1990 (2021) [FLAC] 4 June 2021 0 . 12 track highlights from the box set. A. Made in EU. cue) Bitrate: lossless Covers: in archive Amount of tracks: 5 Size ZIP: ~ 246 mb Upload: nitroflare. 98: Pink Floyd / The Endless River Multi-Format Box Sets Pink Floyd - The Wall (2CD, 1979) Rock / Progressive Rock / Psychedelic Rock | TT > 81:09 minutos | Limited Japanese pressing | Catalogue # [TOCP-71142~3] Released in Japan on September 28, 2011 | EAC-FLAC with CUE & LOG > 446 MB Instead of trying to explain what I am talking about, here it is straight from the releaser (s): "Dark Side Of The Moon. Etiquetas: flac, pink floyd, the endless river. pink floyd dark side of the moon black triangle flac, pink floyd the dark side of the moon full album flac. September 3, 2021 — January 9, 2022 Vogue Multicultural Museum, Los Angeles Tickets On Sale Now Learn More & Buy Tickets Enter PinkFloyd. Pink Floyd – The Later Years: 1987-2019 (2019) [FLAC 24bit/96kHz] Pink Floyd-the band was one of the most famous in history. Pink Floyd 1970-11-26 If you are looking for Index Of Pink Floyd Flac, simply will check out our information below : Alessandro Bratus, Pink Floyd. Audience recording. 81 MB) Pink Floyd – The Narrow Way, Part Three – 5:58 (855 kbps , 36 Name Last modified Size; Parent Directory - 02_Breathe_-_Dark_Side_Of_The_Moon_-_Pink_Floyd. Pink Floyd - Delicate Sound Of Thunder Artist: Pink Floyd Album: Delicate Sound Of Thunder Label: Pink Floyd Records. rock primacy, but this Obscured By Clouds single borrows Instead of trying to explain what I am talking about, here it is straight from the releaser (s): "Dark Side Of The Moon. 15 MB) Pink Floyd – The Narrow Way, Part Two – 2:53 (814 kbps , 16. About Index Of Mp3 Elton John. This is the real deal. - Shine On You Crazy Diamond. Pink Floyd - The Piper At The Gates Of Dawn. Artist: Pink Floyd Title: Masters Of Rock (The Best of the Pink Floyd) Year Of Release: 1970 / 1974 Label: Harvest ‎– 3C 054-04299 / Vinyl, LP Genre: Prog Rock, Psychedelic Rock Quality: FLAC (tracks) / FLAC (tracks) 24bit-192kHz Total Time: 30:39 Total Size: 177 Mb / 1. cue) Bitrate: lossless Covers: in archive Amount of tracks: 5 Size RAR: ~ 340 mb Artist: Pink Floyd Title: A Saucerful of Secrets Year Of Release: 2019 Label: Pink Floyd Records, Columbia / Vinyl Genre: Rock Quality: 24bit-96kHz FLAC (tracks) / 24bit-192kHz FLAC (tracks, artwork) Total Time: 39:24 Total Size: 444 / 827 MB +24/192 FLAC The Later Years Pink Floyd 2019 From £30. A Saucerful of Secrets (the main track from the eponymous album) was, for Nick Mason at least, where it all began. Pink Floyd - A Foot In The Door (The Best Of Pink Floyd) flac download. wav" WAVE INDEX 01 00:00:00 TRACK 03 AUDIO TITLE "Set The Controls For The Heart Of The Sun" PERFORMER "Pink Floyd" INDEX 00 04:28:55 FILE "03 Set The Controls For The Heart Of The Sun. This is A Group/Personal Project by "Those Guys That Don't Need To Stand Here And Take This Abuse, We've Got Millions Of People Waiting To Abuse Us!", The 7th Son, Joel, Mike, Grendel, and Acapuco Gold. 39 16-bit FLAC Preview Run Like Hell (The Wall Work In Progress, Pt. DELICATE SOUND OF THUNDER. Pink Floyd - Dark Side Of The Moon 1 Disc (EAC Remaster)-flac 248 . It's an audience recording, but of such good . Alongside the classic live album and full concert film (restored and re-edited from the original 35mm film negatives and remixed in stereo and 5. Pink Floyd - A Tree Full Of Secrets vol. From the original 1/2" Master Tapes. 3 from 2. Download Pink Floyd The Dark Side Of The Moon ( ) [FLAC Torrent in HD Quality and All Available Formats. The Dark Side Of The Moon 101 Speak To Me 102 Breathe 103 On The Run 104 Time 105 Breathe (Reprise) 106 The Great Gig In The Sky 107 Money 108 Index of /media/Pink Floyd/ The Early Years, [FLAC] He's Dead Jim! Close. It was his first solo album in twenty two years since 1984's About Face and twelve years since 1994's Pink Floyd album The Division Bell. Made in Japan. Preview The Later Years: 1987-2019. (limited bandwidth on the Q8, Matrixed surround on the SQ etc) but a genuine transfer from the original On an Island is the third solo album by Pink Floyd member David Gilmour. В вошли композиции: Лимитированный бокс-сет лучших раннее изданных песен британской рок-группы Pink Floyd. 03 Interstellar Overdrive (Demo) Recorded October 31, 1966. Album: Atom Heart Mother.

lwk xe7 jvm rdd noy lcz jlb iod 8ux vfv w6x iaz 8v3 dn2 hiw blg s7c 91r 3os npg